Torrents.ovh

I, Me aur Main 2013 Hindi 720p Blu-Ray x264 AAC { TaRa } mkv

×

I Me Aur Main | Movie Trailer | John Abraham, Chitrangda Singh & Prachi Desai


I, Me aur Main 2013 Hindi 720p Blu-Ray x264 AAC { TaRa }.mkv


===================================================================
General
Complete name : I, Me aur Main 2013 Hindi 720p Blu-Ray x264 AAC { TaRa }.mkv
Format : Matroska
Format version : Version 4 / Version 2
File size : 800 MiB
Duration : 1h 45mn
Overall bit rate : 1 064 Kbps
===================================================================
Video
ID : 1
Format : AVC
Format/Info : Advanced Video Codec
Format profile : [email protected]
Format settings, CABAC : Yes
Format settings, ReFrames : 12 frames
Codec ID : V_MPEG4/ISO/AVC
Duration : 1h 45mn
Bit rate : 998 Kbps
Width : 1 280 pixels
Height : 544 pixels
Display aspect ratio : 2.35:1
Frame rate mode : Constant
Frame rate : 23.976 (24000/1001) fps
Color space : YUV
Chroma subsampling : 4:2:0
Bit depth : 8 bits
Scan type : Progressive
Bits/(Pixel*Frame) : 0.060
Stream size : 750 MiB (94%)
Title : .....::::: TaRa :::::......
Language : Hindi
Default : Yes
Forced : No
===================================================================
Audio
ID : 2
Format : AAC
Format/Info : Advanced Audio Codec
Format profile : LC
Codec ID : A_AAC
Duration : 1h 45mn
Bit rate : 64.0 Kbps
Channel(s) : 2 channels
Channel positions : Front: L R
Sampling rate : 44.1 KHz
Frame rate : 43.066 fps (1024 spf)
Compression mode : Lossy
Delay relative to video : 10ms
Stream size : 48.1 MiB (6%)
Title : .....::::: TaRa :::::......
Language : Hindi
Default : Yes
Forced : No
===================================================================









































Files:

I, Me aur Main 2013 Hindi 720p Blu-Ray x264 AAC { TaRa }.mkv